[DDD] 末日时在做什么?有没有空?可以来拯救吗?sukasuka [BDrip 720p HEVC AAC][10bits](OST & OP)



早一步看到有人做小体积而且看起来很专业,我就不瞎折腾了,不过做出来了,就出来抢饭碗hhh。

字幕后面找找再说。

General Complete name : D:\[DDD] 末日时在做什么?有没有空?可以来拯救吗? [BDrip 720p HEVC AAC][10bits]\終末なにしてますか?忙しいですか?救ってもらっていいですか? #01 「太阳の倾いたこの世界で-broken chronograph-」.mp4 Format : MPEG-4 Format profile : Base Media Codec ID : isom (isom) File size : 217 MiB Duration : 24 min 12 s Overall bit rate mode : Variable Overall bit rate : 1 256 kb/s Encoded date : UTC 2017-12-05 10:28:53 Tagged date : UTC 2017-12-05 10:28:53
Video ID : 1 Format : HEVC Format/Info : High Efficiency Video Coding Format profile : Main [email protected]@Main Codec ID : hev1 Codec ID/Info : High Efficiency Video Coding Duration : 24 min 11 s Bit rate : 1 081 kb/s Maximum bit rate : 8 964 kb/s Width : 1 280 pixels Height : 720 pixels Display aspect ratio : 16:9 Frame rate mode : Variable Frame rate : 23.976 (23976/1000) FPS Minimum frame rate : 23.810 FPS Maximum frame rate : 16 000.000 FPS Original frame rate : 23.976 (24000/1001) FPS Color space : YUV Chroma subsampling : 4:2:0 Bit depth : 10 bits Bits/(Pixel*Frame) : 0.049 Stream size : 187 MiB (86%) Writing library : x265 2.518fa144d453e:[Windows][GCC 7.1.0][64 bit] 10bit Encoding settings : cpuid=1173503 / frame-threads=3 / numa-pools=8 / wpp / no-pmode / no-pme / no-psnr / no-ssim / log-level=2 / input-csp=1 / input-res=1280×720 / interlace=0 / total-frames=34814 / level-idc=0 / high-tier=1 / uhd-bd=0 / ref=6 / no-allow-non-conformance / no-repeat-headers / annexb / no-aud / no-hrd / info / hash=0 / no-temporal-layers / open-gop / min-keyint=1 / keyint=360 / bframes=6 / b-adapt=2 / b-pyramid / bframe-bias=0 / rc-lookahead=40 / lookahead-slices=4 / scenecut=40 / no-intra-refresh / ctu=32 / min-cu-size=8 / no-rect / no-amp / max-tu-size=32 / tu-inter-depth=2 / tu-intra-depth=2 / limit-tu=0 / rdoq-level=1 / dynamic-rd=0.00 / no-ssim-rd / signhide / no-tskip / nr-intra=0 / nr-inter=0 / no-constrained-intra / no-strong-intra-smoothing / max-merge=2 / limit-refs=3 / no-limit-modes / me=1 / subme=2 / merange=44 / temporal-mvp / weightp / no-weightb / no-analyze-src-pics / deblock=0:0 / sao / no-sao-non-deblock / rd=3 / no-early-skip / rskip / no-fast-intra / no-tskip-fast / no-cu-lossless / no-b-intra / rdpenalty=0 / psy-rd=1.00 / psy-rdoq=3.00 / no-rd-refine / analysis-reuse-mode=0 / no-lossless / cbqpoffs=0 / crqpoffs=0 / rc=crf / crf=18.0 / qcomp=0.60 / qpstep=4 / stats-write=0 / stats-read=0 / ipratio=1.40 / pbratio=1.30 / aq-mode=1 / aq-strength=1.00 / cutree / zone-count=0 / no-strict-cbr / qg-size=16 / no-rc-grain / qpmax=69 / qpmin=0 / no-const-vbv / sar=1 / overscan=0 / videoformat=5 / range=0 / colorprim=2 / transfer=2 / colormatrix=2 / chromaloc=0 / display-window=0 / max-cll=0,0 / min-luma=0 / max-luma=1023 / log2-max-poc-lsb=8 / vui-timing-info / vui-hrd-info / slices=1 / opt-qp-pps / opt-ref-list-length-pps / no-multi-pass-opt-rps / scenecut-bias=0.05 / no-opt-cu-delta-qp / no-aq-motion / no-hdr / no-hdr-opt / no-dhdr10-opt / analysis-reuse-level=5 / scale-factor=0 / refine-intra=0 / refine-inter=0 / refine-mv=0 / no-limit-sao / ctu-info=0 Tagged date : UTC 2017-12-05 10:28:55
Audio ID : 2 Format : AAC Format/Info : Advanced Audio Codec Format profile : LC Codec ID : mp4a-40-2 Duration : 24 min 12 s Bit rate mode : Variable Bit rate : 170 kb/s Maximum bit rate : 264 kb/s Channel(s) : 2 channels Channel positions : Front: L R Sampling rate : 48.0 kHz Frame rate : 46.875 FPS (1024 SPF) Compression mode : Lossy Stream size : 29.4 MiB (14%) Encoded date : UTC 2017-12-05 10:25:05 Tagged date : UTC 2017-12-05 10:28:55
 

「点点赞赏,手留余香」

    还没有人赞赏,快来当第一个赞赏的人吧!
等待编辑中
0 条回复 A 作者 M 管理员
    所有的伟大,都源于一个勇敢的开始!
欢迎您,新朋友,感谢参与互动!欢迎您 {{author}},您在本站有{{commentsCount}}条评论