[DDD] ID-0 [BDrip HEVC AAC 720p][10bits](谷口悟朗,村田莲尔)



去年很突出的一匹黑马,而且是村田莲尔近十年后再次回到银屏上做原画及人物设定。

非常感谢天香字幕社&A.I.R.sub做这部片。在这里奉上720p外挂字幕版。

播放器说明:前不久想到替换VLC来播放DVD光盘,所以首次安装了PotPlayer,然后就顺便测试了HEVC播放性能,结果没有出现任何关于之前有些网友提出的播放问题,可以快进退,有图像,不会花屏。因此以后不再针对播放问题做出任何解答。

 

对于播放错误猜想:一、阁下的电脑里有其他视频工具干扰正常解码;

 

二、做了系统优化;

 

三、硬件配置太过时,跟不上。

 

PotPlayer是完全傻瓜式安装使用,都不用设置什么就能很好使用,我只能帮你们到这里。以后不再针对播放问题做出任何解答。

General Complete name : D:\[DDD] ID-0 [BDrip HEVC AAC 720p][10bits]\ID-0 01 DIG 「魂魄遷移 MIND TRANCE」.mp4 Format : MPEG-4 Format profile : Base Media Codec ID : isom (isom) File size : 420 MiB Duration : 23 min 41 s Overall bit rate mode : Variable Overall bit rate : 2 477 kb/s Encoded date : UTC 2018-02-16 08:24:55 Tagged date : UTC 2018-02-16 08:24:55
Video ID : 1 Format : HEVC Format/Info : High Efficiency Video Coding Format profile : Main [email protected]@Main Codec ID : hev1 Codec ID/Info : High Efficiency Video Coding Duration : 23 min 41 s Bit rate : 2 283 kb/s Maximum bit rate : 16.0 Mb/s Width : 1 280 pixels Height : 720 pixels Display aspect ratio : 16:9 Frame rate mode : Variable Frame rate : 23.976 (23976/1000) FPS Minimum frame rate : 23.810 FPS Maximum frame rate : 16 000.000 FPS Original frame rate : 23.976 (24000/1001) FPS Color space : YUV Chroma subsampling : 4:2:0 Bit depth : 10 bits Bits/(Pixel*Frame) : 0.103 Stream size : 387 MiB (92%) Writing library : x265 2.632e6f04b8713:[Windows][GCC 7.2.0][64 bit] 10bit Encoding settings : cpuid=1173503 / frame-threads=3 / numa-pools=8 / wpp / no-pmode / no-pme / no-psnr / no-ssim / log-level=2 / input-csp=1 / input-res=1280×720 / interlace=0 / total-frames=34072 / level-idc=0 / high-tier=1 / uhd-bd=0 / ref=6 / no-allow-non-conformance / no-repeat-headers / annexb / no-aud / no-hrd / info / hash=0 / no-temporal-layers / open-gop / min-keyint=1 / keyint=360 / bframes=6 / b-adapt=2 / b-pyramid / bframe-bias=0 / rc-lookahead=40 / lookahead-slices=4 / scenecut=40 / no-intra-refresh / ctu=32 / min-cu-size=8 / no-rect / no-amp / max-tu-size=32 / tu-inter-depth=2 / tu-intra-depth=2 / limit-tu=0 / rdoq-level=1 / dynamic-rd=0.00 / no-ssim-rd / signhide / no-tskip / nr-intra=0 / nr-inter=0 / no-constrained-intra / no-strong-intra-smoothing / max-merge=2 / limit-refs=3 / no-limit-modes / me=1 / subme=2 / merange=44 / temporal-mvp / weightp / no-weightb / no-analyze-src-pics / deblock=0:0 / sao / no-sao-non-deblock / rd=3 / no-early-skip / rskip / no-fast-intra / no-tskip-fast / no-cu-lossless / no-b-intra / no-splitrd-skip / rdpenalty=0 / psy-rd=1.00 / psy-rdoq=3.00 / no-rd-refine / analysis-reuse-mode=0 / no-lossless / cbqpoffs=0 / crqpoffs=0 / rc=crf / crf=18.0 / qcomp=0.70 / qpstep=4 / stats-write=0 / stats-read=0 / ipratio=1.40 / pbratio=1.30 / aq-mode=1 / aq-strength=1.00 / cutree / zone-count=0 / no-strict-cbr / qg-size=16 / no-rc-grain / qpmax=69 / qpmin=0 / no-const-vbv / sar=1 / overscan=0 / videoformat=5 / range=0 / colorprim=2 / transfer=2 / colormatrix=2 / chromaloc=0 / display-window=0 / max-cll=0,0 / min-luma=0 / max-luma=1023 / log2-max-poc-lsb=8 / vui-timing-info / vui-hrd-info / slices=1 / no-opt-qp-pps / no-opt-ref-list-length-pps / no-multi-pass-opt-rps / scenecut-bias=0.05 / no-opt-cu-delta-qp / no-aq-motion / no-hdr / no-hdr-opt / no-dhdr10-opt / analysis-reuse-level=5 / scale-factor=0 / refine-intra=0 / refine-inter=0 / refine-mv=0 / no-limit-sao / ctu-info=0 / no-lowpass-dct / refine-mv-type=0 / copy-pic=1 Tagged date : UTC 2018-02-16 08:25:00
Audio ID : 2 Format : AAC Format/Info : Advanced Audio Codec Format profile : LC Codec ID : mp4a-40-2 Duration : 23 min 41 s Bit rate mode : Variable Bit rate : 192 kb/s Maximum bit rate : 299 kb/s Channel(s) : 2 channels Channel positions : Front: L R Sampling rate : 48.0 kHz Frame rate : 46.875 FPS (1024 SPF) Compression mode : Lossy Stream size : 32.1 MiB (8%) Encoded date : UTC 2018-02-16 08:07:17 Tagged date : UTC 2018-02-16 08:25:00
 

「点点赞赏,手留余香」

    还没有人赞赏,快来当第一个赞赏的人吧!
等待编辑中
0 条回复 A 作者 M 管理员
    所有的伟大,都源于一个勇敢的开始!
欢迎您,新朋友,感谢参与互动!欢迎您 {{author}},您在本站有{{commentsCount}}条评论