[U3-Project/U3-Rip] 紫羅蘭永恆花園 / Violet Evergarden / ヴァイオレット・エヴァーガーデン [Extra Episode (4.5)][BDRip AVC-10bit 1920x1080p FLAC] [附雪飄中文字幕]



第 4.5 集附於 7 月 4日發售的 BD&DVD Vol.4 中,

講述發生在第四話與第五話之間的數個月內,一位歌姬代筆委託的故事。


僅供試看, 喜歡本作品請支持正版

字幕/字體(Fonts)載點 :

share.dmhy.org/topics/view/494122_Violet_Evergarden_Extra_Episode_1080p.html

感謝ssnake製作


祝!紫羅蘭永恆花園完全新作劇場版決定!


MediaInfo

   Video ID                          : 1 Format                      : AVC Format/Info                 : Advanced Video Codec Format profile              : High [email protected] Format settings, CABAC      : Yes Format settings, ReFrames   : 12 frames Codec ID                    : V_MPEG4/ISO/AVC Duration                    : 34 min 14 s Bit rate                    : 12.6 Mb/s Width                       : 1 920 pixels Height                      : 1 080 pixels Display aspect ratio        : 16:9 Frame rate mode             : Constant Frame rate                  : 23.976 (24000/1001) FPS Color space                 : YUV Chroma subsampling          : 4:2:0 Bit depth                   : 10 bits Scan type                   : Progressive Bits/(Pixel*Frame)          : 0.253 Stream size                 : 3.01 GiB (88%) Writing library             : x264 core 155 r2901 7d0ff22 Encoding settings           : cabac=1 / ref=12 / deblock=1:0:0 / analyse=0x3:0x133 / me=umh / subme=11 / psy=1 / psy_rd=1.00:0.00 / mixed_ref=1 / me_range=32 / chroma_me=1 / trellis=2 / 8x8dct=1 / cqm=0 / deadzone=21,11 / fast_pskip=0 / chroma_qp_offset=-2 / threads=24 / lookahead_threads=6 / sliced_threads=0 / nr=0 / decimate=0 / interlaced=0 / bluray_compat=0 / constrained_intra=0 / bframes=12 / b_pyramid=2 / b_adapt=2 / b_bias=0 / direct=3 / weightb=1 / open_gop=0 / weightp=2 / keyint=240 / keyint_min=23 / scenecut=40 / intra_refresh=0 / rc=crf / mbtree=0 / crf=16.0 / qcomp=0.70/ qpmin=0 / qpmax=48 / qpstep=4 / ip_ratio=1.40 / pb_ratio=1.30 / aq=1:0.85 Default                     : Yes Forced                      : No Color range                 : Limited Matrix coefficients         : BT.709  Audio #1 ID                          : 2 Format                      : FLAC Format/Info                 : Free Lossless Audio Codec Codec ID                    : A_FLAC Duration                    : 34 min 14 s Bit rate mode               : Variable Bit rate                    : 1 375 kb/s Channel(s)                  : 2 channels Channel positions           : Front: L R Sampling rate               : 48.0 kHz Frame rate                  : 11.719 FPS (4096 spf) Bit depth                   : 24 bits Stream size                 : 337 MiB (10%) Title                       : Main Writing library             : libFLAC 1.3.2 (UTC 2017-01-01) Language                    : Japanese Default                     : Yes Forced                      : No 

U3-Project BD自購團 (since 2018.05.07)

近期的BD購買/預訂列表 (含未發售/上架)

Movie&OVA:

劇場版「Fate/stay night [Heaven’s Feel] I.presage flower」(完全生産限定版) BD [完]

劇場版 窈窕淑女 前編~紅緒、花樣的17歲~ BD [完]

想要傳達你的聲音 (限定版) BD [完]

請問您今天要來點兔子嗎? ~Dear My Sister~ BD (初回限定生産) [完]

牽牛花與加瀨同學 。OVA劇場限定BD [完]

コードギアス 反逆のルルーシュ I 興道 BD (特装限定版)[完]

コードギアス 反逆のルルーシュ II 叛道 BD(特装限定版)[完]

劇場版 進撃の巨人 Season 2 覚醒の咆哮 (初回限定版BD)[完]

映画 中二病でも恋がしたい! -Take On Me- BD (初回生産限定版)

劇場版 超時空要塞Δ 激情的女武神 BD (特装限定版)

さよならの朝に約束の花をかざろう (特装限定版) BD

コードギアス 反逆のルルーシュIII 皇道 BD (特装限定版)[尚未上架 , 購買預定]

劇場版 窈窕淑女 後編~東京大浪漫~ BD [尚未上架 , 購買預定]

電影 吹響吧!上低音號~莉茲與青鳥~ (初回生産限定版) BD[尚未上架 , 購買預定]

未來的未來 (初回生産限定版) BD[尚未上架 , 購買預定]

劇場版「Fate/stay night [Heaven’s Feel] II.lost butterfly」(完全生産限定版) BD[尚未上架 , 購買預定]

2018年1月TV番 (TV Animation) :

搖曳露營△ / Yuru Camp△ (初回生産限定版) BD全卷

比宇宙更遠的地方 (初回生産限定版) BD全卷[完]

愛在雨過天晴時 / 戀如雨止 (完全生産限定版) BD全卷[完]

Violet Evergarden (初回生産限定版) BD全卷[完]

DEVILMAN crybaby (ANIPLEX+限定版) COMPLETE BDBOX[完]

刻刻 Blu-ray BOX[完]

OVERLORD II BD全卷[完]

DARLING in the FRANXX / 比翼之吻(完全生産限定版) BD全卷

Fate/Extra: Last Encore (完全生産限定版) BD全卷

衛宮家今天的餐桌風景 / 衛宮家今天的飯(完全生産限定版) BD全卷

刀使巫女 (初回生産限定版) BD全卷

Slow Start (完全生産限定版) BD全卷

2018年4月TV番 (TV Animation) :

僕のヒーローアカデミア 3rd BD全卷 (初回生産限定版)

Full Metal Panic! Invisible Victory / 驚爆危機(IV) BD全卷

MEGALO BOX BD全卷

賽馬娘 Pretty Derby (完全生産限定版) BD全卷

3D 女友 (完全生産限定版) BD全卷

魔法少女網站 (初回生産限定版) BD全卷

多田君不戀愛 (初回生産限定版) BD全卷

Steins;Gate 0 (完全生産限定版) BD全卷

黑社會的超能力女兒 / 極道超女 (初回生産限定版) BD [不確定]

宅男腐女戀愛真難 / 阿宅的戀愛太難 (完全生産限定版) BD [不確定]

其他:

干物妹!うまるちゃんR BD 全卷 (初回生産限定版)[完]

Knight’s & Magic (初回生産限定版) BD全卷 [完]

BanG Dream! (初回生産限定版) BD全卷 [完]


U3动画BD资源闲聊QQ群:254898625

telegram:t.cn/RdIEUBh

U3萌新自购团招人中 !!!!

有兴趣加入自购团的大佬,请附上最近的BD购物证明(订单/实物),已有BD光驱或未来可能购入BD光驱即可

QQ群号码:254898625找管理員test/Xe3Res


「点点赞赏,手留余香」

    还没有人赞赏,快来当第一个赞赏的人吧!
等待编辑中
0 条回复 A 作者 M 管理员
    所有的伟大,都源于一个勇敢的开始!
欢迎您,新朋友,感谢参与互动!欢迎您 {{author}},您在本站有{{commentsCount}}条评论